Help - Search - Members - Calendar
Full Version: Old Coven - Mysteries Of The Dark Occult [ep] (2022)
Metal Area - Extreme Music Portal > Releases Area / Релизы > Archive
sacrut


*Artist: Old Coven
*Album: Mysteries Of The Dark Occult [ep]
*Year: 2022
*Genre: Black/Thrash Metal
*Country: United States
*Format: mp3@CBR320kbps
*Size: 34MB

Tracklist:
1. Reborn in Rotting Flesh 05:26
2. Black Candles Burning 05:54
3. Unholy Mayhem 03:34
******************************
Total playing time: 14:54



Technical info

Input File: 02. Reborn in Rotting Flesh.mp3
Channels : 2
Sample Rate : 48000
Precision : 16-bit
Duration : 00:05:26.07 = 15651216 samples ~ 24455 CDDA sectors
File Size : 13.0M
Bit Rate : 320k
Sample Encoding: MPEG audio (layer I, II or III)
Comments :
Title=Reborn in Rotting Flesh
Artist=Old Coven
Album=Mysteries of the Dark Occult
Tracknumber=02/03
Year=2022
Genre=Black/Thrash Metal



[ Hidden Text ]
Storky
Enjoyable Black/Thrash Metal
This is a "lo-fi" version of our main content. To view the full version with more information, formatting and images, please click here.
Invision Power Board © 2001-2022 Invision Power Services, Inc.