Help - Search - Members - Calendar
Full Version: Cairns - Keening [ep] (2022)
Metal Area - Extreme Music Portal > Releases Area / Релизы > Archive
Funeral Frost


*Artist: Cairns
*Album: Keening [ep]
*Year: 2022
*Genre: Atomspheric/Post-Black Metal
*Country: United Kingdom
*Format: mp3@CBR320kbps
*Size: 59MB

Tracklist:
1. The Wicker Ablaze 05:33
2. When Days Grew Shorter 07:24
3. The Eternal Sea 05:42
4. Haunted 06:56
******************************
Total playing time: 25:35



Technical info

Input File: 01 - The Wicker Ablaze.mp3
Channels : 2
Sample Rate : 44100
Precision : 16-bit
Duration : 00:05:33.66 = 14714274 samples = 25024.3 CDDA sectors
File Size : 13.3M
Bit Rate : 320k
Sample Encoding: MPEG audio (layer I, II or III)
Comments :
Title=The Wicker Ablaze
Artist=Cairns
Album=Keening
Tracknumber=1
Year=2022



[ Hidden Text ]
apries
поправьте жанр
This is a "lo-fi" version of our main content. To view the full version with more information, formatting and images, please click here.
Invision Power Board © 2001-2022 Invision Power Services, Inc.