Help - Search - Members - Calendar
Full Version: Alvaldur - Of Dusk And Crumbling Silence [ep] (2022)
Metal Area - Extreme Music Portal > Releases Area / Релизы > New Releases
Funeral Frost


*Artist: Alvaldur
*Album: Of Dusk And Crumbling Silence [ep]
*Year: 2022
*Genre: Black Metal
*Country: United States
*Format: mp3@CBR320kbps
*Size: 62MB

Tracklist:
1. Nightmares Ride Across the Stars 04:08
2. Where Great Halls Fade to Silence 04:28
3. Sing Not a Song for Me 06:09
4. The Wind Sings of Ruin 01:43
5. Under the Crescent Moon 03:59
6. At the End of All Tales 06:44
******************************
Total playing time: 27:11



Technical info

Input File: 05 - Under the Crescent Moon.mp3
Channels : 2
Sample Rate : 44100
Precision : 16-bit
Duration : 00:03:59.25 = 10550705 samples = 17943.4 CDDA sectors
File Size : 9.57M
Bit Rate : 320k
Sample Encoding: MPEG audio (layer I, II or III)
Comments :
Title=Under the Crescent Moon
Artist=Alvaldur
Album=Of Dusk and Crumbling Silence
Tracknumber=5
Year=2022



[ Hidden Text ]
Storky
Well made but a bit depressive and despondent, quite not my tempo
Victim of fate
ЦИТАТА(Storky @ May 24 2022, 15:38:26) *
Well made but a bit depressive and despondent, quite not my tempo

не депрессивно
Storky
ЦИТАТА(Victim of fate @ May 24 2022, 20:10:29) *
не депрессивно

трохи есть во всех песнях, но намного меньше чем в немецких альбомах. И не настолько, чтобы это тэговать
This is a "lo-fi" version of our main content. To view the full version with more information, formatting and images, please click here.
Invision Power Board © 2001-2022 Invision Power Services, Inc.