Help - Search - Members - Calendar
Full Version: Krod - Black Metal Legion (2022)
Metal Area - Extreme Music Portal > Releases Area / Релизы > New Releases
Carcharoth


*Artist: Krod
*Album: Black Metal Legion
*Year: 2022
*Genre: Black Metal
*Country: Chile
*Format: mp3@CBR320kbps
*Size: 133MB

Tracklist:
01. Serpents Sorrows 06:08
02. Black Metal Legion 04:03
03. No Proud 06:43
04. Nihilist Shadows 04:40
05. Holocaust 05:44
06. K.R.O.D. 05:38
07. Humans Must Die 06:16
08. Howl Of Loneliness 04:26
09. Entre La Eternidad 13:20
******************************
Total playing time: 56:58



Extended info
Password: metalarea.org

Enjoy! smile1.gif


Technical info

Input File: 01-Krod-Serpents_Sorrows.mp3
Channels : 2
Sample Rate : 44100
Precision : 16-bit
Duration : 00:06:08.09 = 16232681 samples = 27606.6 CDDA sectors
File Size : 14.7M
Bit Rate : 320k
Sample Encoding: MPEG audio (layer I, II or III)
Comments :
Title=Serpents Sorrows
Artist=Krod
Album=Black Metal Legion
Tracknumber=1/9
Year=2022
Genre=Black Metal



[ Hidden Text ]
SSWolf88
ЦИТАТА
Humans Must Die


Прямолинейные как танк smile3.gif
Vitald
Почти одноимённая с названием группца телега с аббревиатурой в названии, прошу пардона за тавтологию - угарная. А вот телега с названием Блэкх Митол Легион, которая должна быть люто злобной, соответствуя названию альбома и как заглавная и титульная в альбоме, получилась вообще какой-то жиденькой. 1488.gif
Так-то одноразовая блэчина.
This is a "lo-fi" version of our main content. To view the full version with more information, formatting and images, please click here.
Invision Power Board © 2001-2022 Invision Power Services, Inc.