Help - Search - Members - Calendar
Full Version: Muruth - Legie Oceli [ep] (2019)
Metal Area - Extreme Music Portal > Releases Area / Релизы > Archive
RUDACHUR


*Artist: Muruth
*Album: Legie Oceli [ep]
*Year: 2019
*Genre: Black Metal
*Country: Slovakia
*Format: mp3@CBR320kbps
*Size: 61MB

Tracklist:
1. Sláva Padlým 04:17
2. Pramen Zla 03:18
3. Legie Oceli 04:33
4. Stíny v Popel 03:55
5. Morová Města 03:20
6. Solární Smrt 03:38
7. Brokovnice Řeší Problém 03:53
******************************
Total playing time: 26:54

Technical info

Input File: 01. Sláva Padlým.mp3
Channels : 2
Sample Rate : 44100
Precision : 16-bit
Duration : 00:04:17.45 = 11353721 samples = 19309 CDDA sectors
File Size : 10.3M
Bit Rate : 320k
Sample Encoding: MPEG audio (layer I, II or III)
Comments :
Title=Slava Padlym
Artist=Muruth
Album=Legie Oceli
Tracknumber=1
Year=2019
Genre=Black Metal
Discnumber=1



[ Hidden Text ]
Storky
true_black.gif true_black.gif
This is a "lo-fi" version of our main content. To view the full version with more information, formatting and images, please click here.
Invision Power Board © 2001-2022 Invision Power Services, Inc.