Help - Search - Members - Calendar
Full Version: Giant Walker - All In Good Time (2022)
Metal Area - Extreme Music Portal > Releases Area / Релизы > New Releases
kefka


*Artist: Giant Walker
*Album: All In Good Time
*Year: 2022
*Genre: Progressive Metal
*Country: United Kingdom
*Format: mp3@CBR320kbps
*Size: 99MB

Tracklist:
01.The Fact In Fiction 04:29
02.Katoomba 03:29
03.Podha 05:00
04.Inertia 04:09
05.Optophobia 03:23
06.Left To Wreck 04:24
07.Past The Peak 04:30
08.All We Have Is Gone 04:58
09.Coda 06:15
******************************
Total playing time: 40:37





Technical info

Input File: 02 - Katoomba.mp3
Channels : 2
Sample Rate : 44100
Precision : 16-bit
Duration : 00:03:29.31 = 9230439 samples = 15698 CDDA sectors
File Size : 8.53M
Bit Rate : 326k
Sample Encoding: MPEG audio (layer I, II or III)
Comments :
Title=Katoomba
Artist=Giant Walker
Album=All In Good Time
Tracknumber=02
Year=2022
Genre=Progressive Metal



[ Hidden Text ]
KLOP
Приятная музыка, симпатичная девушка, хороший вокал. Радует что действительно поет, а не говорит растягивая. Еще бы поигралась голосом, ваще был бы агонь. По звучанию напоминает VOLA, по стилистика наверно Amartia.
Yarri
Составляющие неплохие, но цельного ощущения нет. Не зацепило совершенно. Скорее всего снесу.
This is a "lo-fi" version of our main content. To view the full version with more information, formatting and images, please click here.
Invision Power Board © 2001-2022 Invision Power Services, Inc.