*Artist: Sequestrum
*Album: The Epitome Of Putridity [demo]
*Year: 2022
*Genre: Death Metal/Goregrind
*Country: Denmark
*Format: mp3@CBR320kbps
*Size: 39MB

Tracklist:
1. Symposium At The Crematorium 03:25
2. Involucrum Osteomyelitis 02:34
3. Tache Noire 03:35
4. Pearls On Offal 02:36
5. The Tea Of The Heart 03:31
******************************
Total playing time: 15:43




Extended info
Released on MC/MCD/Digital by Extremely Rotten Productions.

Line-up:
Andreas Nordgreen - bass, vocals
David Torturdød - guitar, vocals
Frederik Kabukiman Laursen - drums, vocals
Søren Willatzen - guitar, vocals


Technical info

Input File: 02 Involucrum Osteomyelitis.mp3
Channels : 2
Sample Rate : 44100
Precision : 16-bit
Duration : 00:02:34.00 = 6791400 samples = 11550 CDDA sectors
File Size : 6.46M
Bit Rate : 335k
Sample Encoding: MPEG audio (layer I, II or III)
Comments :
Title=Involucrum Osteomyelitis
Artist=Sequestrum
Album=The Epitome of Putridity
Tracknumber=2
Year=2022
Genre=Deathgrind



[ Hidden Text ]