*Artist: Noircure
*Album: Kyrie
*Year: 2022
*Genre: Atmospheric/Post Black Metal
*Country: Italy
*Format: mp3@VBR271kbps
*Size: 98MB

Tracklist:
1.Brumous 07:47
2.Rovi 07:07
3.Kyrie 06:36
4.Mirifical 08:14
5.Petrichor 06:22
6.Halcyon 07:19
7.Endora 06:37
******************************
Total playing time: 50:02



Extended info
Scene CD Rip


Technical info

Input File: 05-nPetrichor.mp3
Channels : 2
Sample Rate : 44100
Precision : 16-bit
Duration : 00:06:23.01 = 16890609 samples = 28725.5 CDDA sectors
File Size : 12.9M
Bit Rate : 270k
Sample Encoding: MPEG audio (layer I, II or III)
Comments :
Title=Petrichor
Artist=Noircure
Album=Kyrie
Tracknumber=05
Year=2022
Genre=Black Metal



[ Hidden Text ]