Help - Search - Members - Calendar
Full Version: Zatchla - Cryptarque [ep] (2022)
Metal Area - Extreme Music Portal > Releases Area / Релизы > Archive
sacrut


*Artist: Zatchla
*Album: Cryptarque [ep]
*Year: 2022
*Genre: Black Metal
*Country: France
*Format: mp3@CBR320kbps
*Size: 53MB

Tracklist:
1. A Beginner's Guide to Necromancy 00:44
2. Rituals Unkown 05:10
3. Stygian Lords 04:22
4. Angel of Destruction 03:42
5. Horrendous 04:06
6. Consecration 05:26
******************************
Total playing time: 23:30


Preview 2

Technical info

Input File: 03. Zatchla - Stygian Lords.mp3
Channels : 2
Sample Rate : 48000
Precision : 16-bit
Duration : 00:04:22.11 = 12581136 samples ~ 19658 CDDA sectors
File Size : 10.5M
Bit Rate : 320k
Sample Encoding: MPEG audio (layer I, II or III)
Comments :
Title=Stygian Lords
Artist=Zatchla
Album=Cryptarque
Tracknumber=03/06
Year=2022
Genre=138



[ Hidden Text ]
TDM
Затхла?
Storky
ЦИТАТА(TDM @ May 15 2022, 22:23:02) *
Затхла?

есть такое
This is a "lo-fi" version of our main content. To view the full version with more information, formatting and images, please click here.
Invision Power Board © 2001-2022 Invision Power Services, Inc.