*Artist: Genital Deformities
*Album: Shag Nasty! Oi!
*Year: 1989
*Genre: Thrash Metal/Hardcore
*Country: United Kingdom
*Format: mp3@CBR320kbps
*Size: 74MB

Tracklist:
01. Babels Children (Intro) 02:55
02. Grotesque Movements 01:39
03. Hell Event 04:00
04. Dik Hill 00:43
05. Babies in Bottles 01:00
06. Crouterposs (Acoustic) 00:53
07. Dark Sky 04:14
08. Embark on Evil 01:27
09. Warcore 01:39
10. The Skins of Our Fathers 02:38
11. The Forbidden 01:15
12. Head Fucker 01:55
13. Son of Celluloid 03:57
14. Compost Corner 01:36
15. Back to Reality 02:22
******************************
Total playing time: 32:13

Preview 1

Extended info
Дикая помесь Celtic Frost и Hellhammer, немного приправленная хардкором



Technical info

Input File: 02 Grotesque movements.mp3
Channels : 2
Sample Rate : 44100
Precision : 16-bit
Duration : 00:01:34.78 = 4179798 samples = 7108.5 CDDA sectors
File Size : 3.95M
Bit Rate : 333k
Sample Encoding: MPEG audio (layer I, II or III)
Comments :
Title=Grotesque movements
Artist=Genital Deformities
Album=1989 ShagNasty! Oi!
Tracknumber=02/13
Year=1989
Genre=Thrash Metal/Hardcore



[ Hidden Text ]