Help - Search - Members - Calendar
Full Version: Stunner - 2099 (2022)
Metal Area - Extreme Music Portal > Releases Area / Релизы > New Releases
Samaritianin


*Artist: Stunner
*Album: 2099
*Year: 2022
*Genre: Heavy Metal
*Country: United States
*Format: mp3@CBR320kbps
*Size: 87MB

Tracklist:
1. Golden Age 03:21
2. 2099 04:28
3. Spectral Stalker 04:41
4. Brain Peel 04:12
5. Megalopolis 04:43
6. Warrior in Time Eternal 04:18
7. Thrall of the Void 04:27
8. Forward to Valor 03:27
9. Street War 04:18
******************************
Total playing time: 37:55




Extended info
Daniel Drums, Vocals
Peter Guitars
See also: ex-In the Stone
Prince Regent Johnald Fairplay Guitars, Vocals
See also: Rot in Coffins
Bryan Mccauley Bass (2019-present)
See also: Widow and Children


Technical info

Input File: 07 - Thrall of the Void.mp3
Channels : 2
Sample Rate : 44100
Precision : 16-bit
Duration : 00:04:27.90 = 11814522 samples = 20092.7 CDDA sectors
File Size : 10.7M
Bit Rate : 320k
Sample Encoding: MPEG audio (layer I, II or III)
Comments :
Title=Thrall of the Void
Artist=STUNNER
Album=2099
Tracknumber=7
Year=2022



[ Hidden Text ]
Darkangelo
Thank You
This is a "lo-fi" version of our main content. To view the full version with more information, formatting and images, please click here.
Invision Power Board © 2001-2022 Invision Power Services, Inc.