Help - Search - Members - Calendar
Full Version: Anunnaki - Aterrizaje (2022)
Metal Area - Extreme Music Portal > Releases Area / Релизы > New Releases
Samaritianin


*Artist: Anunnaki
*Album: Aterrizaje
*Year: 2022
*Genre: Heavy/Power Metal
*Country: Spain
*Format: mp3@CBR320kbps
*Size: 146MB

Tracklist:
1. La leyenda de los Anunnaki 04:31
2. Alma blanca 04:06
3. Embrujada 04:18
4. Aterrizaje 04:39
5. La puerta estelar 03:37
6. Vida después de la vida 04:40
7. Noche de concierto 04:06
8. La misión 04:14
9. Sin compasión 04:51
10. Sueño roto 03:57
11. Afortunado 03:54
12. Aterrizaje (duet) 04:39
13. Embrujada (version 2) 04:17
14. Noche de concierto (duet) 04:04
15. Sueño roto (duet) 03:58
******************************
Total playing time: 1:03:51



Extended info
Pascual Balaguer Drums
Sergi Balaguer Guitars
Henry Unknown
Borja Unknown
Sofía Gómez Vocals


Technical info

Input File: 07 - Noche de Concierto.mp3
Channels : 2
Sample Rate : 44100
Precision : 16-bit
Duration : 00:04:06.09 = 10852569 samples = 18456.8 CDDA sectors
File Size : 9.85M
Bit Rate : 320k
Sample Encoding: MPEG audio (layer I, II or III)
Comments :
Title=Noche de Concierto
Artist=Anunnaki
Album=Aterrizaje
Tracknumber=7
Year=2022



[ Hidden Text ]
zauber1
Вот это жесть!
This is a "lo-fi" version of our main content. To view the full version with more information, formatting and images, please click here.
Invision Power Board © 2001-2022 Invision Power Services, Inc.