Help - Search - Members - Calendar
Full Version: Elvira's Curse - Sacrilege (2022)
Metal Area - Extreme Music Portal > Releases Area / Релизы > New Releases
Samaritianin


*Artist: Elvira's Curse
*Album: Sacrilege
*Year: 2022
*Genre: Heavy Metal
*Country: United States
*Format: mp3@CBR320kbps
*Size: 91MB

Tracklist:
1. The King's Waltz
2. Hang and Rot
3. Death Not Taken
4. Burn With Me
5. Not My God
6. Dehumanize
7. Sacrilege
8. Lesbian Nation
9. Pet Sematary (Ramones cover)
10. Eye of the Witch
******************************
Total playing time: 40:02



Extended info
D.J. Poling Drums
See also: Phoenix Down
Ozzy Addams Vocals, Guitars, Bass
See also: Phoenix Down, ex-Melting Myth


Technical info

Input File: 07 - Sacrilege.mp3
Channels : 2
Sample Rate : 44100
Precision : 16-bit
Duration : 00:07:52.53 = 20838661 samples = 35439.9 CDDA sectors
File Size : 18.9M
Bit Rate : 320k
Sample Encoding: MPEG audio (layer I, II or III)
Comments :
Title=Sacrilege
Artist=Elvira's Curse
Album=Sacrilege
Tracknumber=7
Year=2022



[ Hidden Text ]
vosmidesijatye
Обложка угарная 15.gif

Где то я видел ужо изображения этой кошечки...Вроде мульт какой то с нею был или чот такое...
This is a "lo-fi" version of our main content. To view the full version with more information, formatting and images, please click here.
Invision Power Board © 2001-2022 Invision Power Services, Inc.