Help - Search - Members - Calendar
Full Version: Acanthosis - Scriptures Of The Accursed (2022)
Metal Area - Extreme Music Portal > Releases Area / Релизы > New Releases
kefka


*Artist: Acanthosis
*Album: Scriptures Of The Accursed
*Year: 2022
*Genre: Technical/Melodic Death Metal
*Country: Canada
*Format: mp3@CBR320kbps
*Size: 75MB

Tracklist:
1.Thirst of Knowledge 04:36
2.Deep Scarlet, Chapter I; Impertinent Worship 03:35
3.Deep Scarlet, Chapter II; Terraria Now Resides Basking in Red 02:58
4.The Deep Beckons 04:15
5.The Hallowed Balance, Chapter I; The Amaranthine Decay of Abhorrence 03:34
6.The Hallowed Balance, Chapter II; The Cursed Dryad 04:19
7.Intrenched Affliction 04:17
8.Moonfall 05:25
******************************
Total playing time: 32:59



Technical info

Input File: 03. Deep Scarlet, Chapter II; Terraria Now Resides Basking in Red.mp3
Channels : 2
Sample Rate : 44100
Precision : 16-bit
Duration : 00:02:58.37 = 7866117 samples = 13377.8 CDDA sectors
File Size : 7.14M
Bit Rate : 320k
Sample Encoding: MPEG audio (layer I, II or III)
Comments :
Title=Deep Scarlet, Chapter II; Terraria Now Resides Basking in Red
Artist=Acanthosis
Album=Scriptures of the Accursed
Tracknumber=03
Year=2022
Genre=Technical/Melodic Death Metal



[ Hidden Text ]
dm666
Lossless: FLAC (tracks)
[ Hidden Text ]
This is a "lo-fi" version of our main content. To view the full version with more information, formatting and images, please click here.
Invision Power Board © 2001-2022 Invision Power Services, Inc.