Help - Search - Members - Calendar
Full Version: Fallen Sanctuary - Terranova (2022)
Metal Area - Extreme Music Portal > Releases Area / Релизы > New Releases
necroscum


*Artist: Fallen Sanctuary
*Album: Terranova
*Year: 2022
*Genre: Melodic Power Metal
*Country: Austria
*Format: mp3@CBR320kbps
*Size: 145MB

Tracklist:
01. Terranova 04:12
02. Now and Forever 04:50
03. Broken Dreams 04:12
04. Rise Against the World 04:53
05. To the Top 04:15
06. Destiny 04:40
07. I Can't Stay 03:42
08. Trail of Destruction 04:34
09. No Rebirth 03:52
10. Bound to Our Legacy 04:23
11. Wait for Me (Bonus Track) 04:15
12. Now and Forever (Instrumental Version) 04:50
13. Rise Against the World (Instrumental Version) 04:53
14. To the Top (Instrumental Version) 04:15
******************************
Total playing time: 1:01:46


Preview 2


Technical info

Input File: 02 - Now and Forever.mp3
Channels : 2
Sample Rate : 44100
Precision : 16-bit
Duration : 00:04:50.00 = 12789000 samples = 21750 CDDA sectors
File Size : 11.8M
Bit Rate : 327k
Sample Encoding: MPEG audio (layer I, II or III)
Comments :
Title=Now and Forever
Artist=Fallen Sanctuary
Album=Terranova
Tracknumber=2
Year=2022-06-24
Genre=Rock
Discnumber=1



[ Hidden Text ]
Cronopio
Thank you.
Dargaud
ЦИТАТА(unit731 @ Jun 23 2022, 18:26:07) *
Вокалист Serenity, если что...
Да, по названию проекта и стране можно было понять smile1.gif
sadmannn
насквозь проштампованный мажорный пауэр
фоном норм, не больше
This is a "lo-fi" version of our main content. To view the full version with more information, formatting and images, please click here.
Invision Power Board © 2001-2022 Invision Power Services, Inc.