Help - Search - Members - Calendar
Full Version: Instigate - Unheeded Warnings Of Decay (2022)
Metal Area - Extreme Music Portal > Releases Area / Релизы > Archive
Samaritianin


*Artist: Instigate
*Album: Unheeded Warnings Of Decay
*Year: 2022
*Genre: Death Metal
*Country: International
*Format: mp3@CBR320kbps
*Size: 83MB

Tracklist:
1. Witness of the End Times 05:07
2. Haruspex 04:46
3. Liturgy of Emptiness 03:39
4. Atonement 04:07
5. Indoctrinated Reborn 04:18
6. Obliteration 03:52
7. Resurrection Denied 03:30
8. Embrace the End 02:42
9. Seeds of Cain 03:18
******************************
Total playing time: 35:19




Extended info
Italy / USA

Riccardo Rogari Bass
See also: Bloodtruth, Forhekset, ex-Hellraiser, ex-Axegrinder
Kevin Talley Drums
See also: 13 Dead, Busted Guts, Criminal Element, Embrace the Dawn, Feared, Grot, Snipers of Babel, Sylencer, The Bastard Within, Dååth, ex-Horror of Horrors, ex-Nothnegal, Born of the Storm, ex-Castrofate, ex-Consumned, ex-Decrepit Birth, ex-Dying Fetus, ex-Implore, ex-Martyred, ex-Misery Index, ex-Power Concept, ex-Six Feet Under, ex-Suffocation, ex-Them, ex-Truth Devoid, ex-WretchedPain, ex-Absence of the Sacred (live), ex-Battlecross (live), ex-Cattle Decapitation (live), ex-DevilDriver (live), ex-Hate Eternal (live), ex-M.O.D. (live), ex-The Black Dahlia Murder (live), ex-The Red Chord (live), ex-Chimaira, ex-Worlds Divide, ex-All the Way to the Bank, ex-Gath, ex-Knuckle Deep
Stefano Rossi Ciucci Guitars
See also: Bloodtruth, Orve, Vomit the Soul, ex-Devouring Hatred, ex-Five Hundred Murders, ex-Palingenesys
Stefano Borciani Vocals
See also: Demiurgon, Xenofaction, ex-Hatred


Technical info

Input File: 05. Indoctrinated Reborn.mp3
Channels : 2
Sample Rate : 44100
Precision : 16-bit
Duration : 00:04:17.00 = 11333700 samples = 19275 CDDA sectors
File Size : 10.5M
Bit Rate : 328k
Sample Encoding: MPEG audio (layer I, II or III)
Comments :
Title=Indoctrinated Reborn
Artist=Instigate
Album=Unheeded Warnings of Decay
Tracknumber=5
Year=2022-06-24
Genre=Alternative
Discnumber=1



[ Hidden Text ]
Cronopio
Thank you.
Samaritianin
FLAC (Tracks) 295 mb
[ Hidden Text ]
Storky
m0821.gif
This is a "lo-fi" version of our main content. To view the full version with more information, formatting and images, please click here.
Invision Power Board © 2001-2022 Invision Power Services, Inc.