Help - Search - Members - Calendar
Full Version: Perpetual Night - Aconitum (2022)
Metal Area - Extreme Music Portal > Releases Area / Релизы > New Releases
Samaritianin


*Artist: Perpetual Night
*Album: Aconitum
*Year: 2022
*Genre: Melodic Death Metal
*Country: Spain
*Format: mp3@CBR320kbps
*Size: 102MB

Tracklist:
1. Aconitum
2. Rotten Bond
3. Antimatter
4. Hierbas Amargas
5. Stars Hunter
6. Silver Key
7. Redemption
8. Dry Land
******************************
Total playing time: 43:29




Extended info
Raúl Ríos Beiro Guitars, Vocals (backing) (2012-present)
See also: ex-Deathillusion
Carlos Garrido Bass (2015-present)
See also: ex-Deathillusion
Luis Rodriguez Drums (2019-present)
See also: Sexton's Orchids
Javier Rodríguez Guitars (2021-present)
See also: Sexton's Orchids
Leo Gonzalez Vocals (2021-present)
See also: ex-Canker


Technical info

Input File: 05 - Perpetual Night - Stars Hunter.mp3
Channels : 2
Sample Rate : 44100
Precision : 16-bit
Duration : 00:05:34.26 = 14740778 samples = 25069.4 CDDA sectors
File Size : 13.7M
Bit Rate : 328k
Sample Encoding: MPEG audio (layer I, II or III)
Comments :
Title=Stars Hunter
Artist=Perpetual Night
Album=Aconitum
Tracknumber=5/8
Year=2022
Discnumber=1/1



[ Hidden Text ]
sadmannn
не сказать, что паршиво, но и особенно не вставляет материал, хотя задатки у пацанов есть
может, к следующему альбому и родят что более толковое
Andrew
По сравнению с тонной хрени, которая выходит в последнее время, то данный опус еще более менее.
Kitalter
да чо вы ребят, офигенный альбом!
Storky
1. Aconitum
2. Rotten Bond
3. Antimatter
6. Silver Key
одни из лучших воршипов на ДТ

8. Dry Land - не плохой финский мелодум, остальное шлак

This is a "lo-fi" version of our main content. To view the full version with more information, formatting and images, please click here.
Invision Power Board © 2001-2022 Invision Power Services, Inc.