Help - Search - Members - Calendar
Full Version: Scorching Tomb - Rotting Away [ep] (2022)
Metal Area - Extreme Music Portal > Releases Area / Релизы > New Releases
kefka


*Artist: Scorching Tomb
*Album: Rotting Away [ep]
*Year: 2022
*Genre: Death Metal
*Country: Canada
*Format: mp3@CBR320kbps
*Size: 47MB

Tracklist:
1.Warpath 03:22
2.Bloodlust Sacrifice 04:19
3.Rotting Away 03:24
4.Only Death Remains 03:57
5.Skin Ripper 05:05
******************************
Total playing time: 20:07



Technical info

Input File: 01. Warpath.mp3
Channels : 2
Sample Rate : 44100
Precision : 16-bit
Duration : 00:03:22.23 = 8918255 samples = 15167.1 CDDA sectors
File Size : 8.19M
Bit Rate : 324k
Sample Encoding: MPEG audio (layer I, II or III)
Comments :
Title=Warpath
Artist=Scorching Tomb
Album=Rotting Away
Tracknumber=1
Year=2022
Discnumber=1/1



[ Hidden Text ]
oathzine
Flac

[ Hidden Text ]
This is a "lo-fi" version of our main content. To view the full version with more information, formatting and images, please click here.
Invision Power Board © 2001-2022 Invision Power Services, Inc.