Help - Search - Members - Calendar
Full Version: Pissrot - Piss.Vile.Gunk [ep] (2022)
Metal Area - Extreme Music Portal > Releases Area / Релизы > New Releases
kefka


*Artist: Pissrot
*Album: Piss.Vile.Gunk [ep]
*Year: 2022
*Genre: Old School Death Metal
*Country: United States
*Format: mp3@CBR320kbps
*Size: 34MB

Tracklist:
1.Cripple Dismemberment 03:09
2.Gunk 01:27
3.Kidney Stone Slingshot 02:00
4.Pumped With Dope 04:04
5.Primal Harvest 02:18
******************************
Total playing time: 12:58



Technical info

Input File: 03. Kidney Stone Slingshot.mp3
Channels : 2
Sample Rate : 44100
Precision : 16-bit
Duration : 00:02:00.88 = 5330720 samples = 9065.85 CDDA sectors
File Size : 5.63M
Bit Rate : 372k
Sample Encoding: MPEG audio (layer I, II or III)
Comments :
Title=Kidney Stone Slingshot
Artist=Pissrot
Album=Piss.Vile.Gunk
Tracknumber=3/5
Year=2022
Discnumber=1/1



[ Hidden Text ]
Anarhist815
Это не металл. Тупо синтетика, созданная в программе.
vosmidesijatye
ЦИТАТА(kefka @ Jun 23 2022, 16:08:03) *
Piss.Vile.Gunk


Кагтавое пгоизношение Piss While Drunk 25.gif
This is a "lo-fi" version of our main content. To view the full version with more information, formatting and images, please click here.
Invision Power Board © 2001-2022 Invision Power Services, Inc.