Help - Search - Members - Calendar
Full Version: Human Barbecue - Red Sun Rising (2022)
Metal Area - Extreme Music Portal > Releases Area / Релизы > New Releases
necroscum


*Artist: Human Barbecue
*Album: Red Sun Rising
*Year: 2022
*Genre: Brutal Death Metal
*Country: Belgium
*Format: mp3@CBR320kbps
*Size: 81MB

Tracklist:
01. Barbaric Annihilation 02:58
02. Hatchet Homicide 03:46
03. Hanged, Drawn, and Quartered 03:32
04. Ravenous Swarm 04:23
05. Sacrificial Engorgement 03:24
06. Amazonian Predatory Frenzy 03:45
07. Digested by Savages 03:27
08. Gorging on Sacrifices 02:40
09. Red Sun Rising 04:14
10. Sickening Hunger 02:35
******************************
Total playing time: 34:44


Preview 2



Technical info

Input File: 02. Hatchet Homicide.mp3
Channels : 2
Sample Rate : 44100
Precision : 16-bit
Duration : 00:03:46.45 = 9986225 samples = 16983.4 CDDA sectors
File Size : 9.21M
Bit Rate : 325k
Sample Encoding: MPEG audio (layer I, II or III)
Comments :
Title=Hatchet Homicide
Artist=Human Barbecue
Album=Red Sun Rising
Tracknumber=2
Year=2022
Discnumber=1/1



[ Hidden Text ]
Anarhist815
Обезжиренное жужжалити. Громче гитары здесь звучат даже скрипы пальцев об струны, что говорит о новичковом уровне. ДР опять же, ниже плинтуса. Все в лучших традициях "брутала" 2020-х.
xax
Два предыдущих у них куда лучше были, этот совсем мимо
oathzine
Flac

[ Hidden Text ]
This is a "lo-fi" version of our main content. To view the full version with more information, formatting and images, please click here.
Invision Power Board © 2001-2022 Invision Power Services, Inc.