Help - Search - Members - Calendar
Full Version: Guillotine A.D. - Born To Fall (2022)
Metal Area - Extreme Music Portal > Releases Area / Релизы > New Releases
Samaritianin


*Artist: Guillotine A.D.
*Album: Born To Fall
*Year: 2022
*Genre: Death Metal
*Country: United States
*Format: mp3@CBR320kbps
*Size: 110MB

Tracklist:
1. Vultures of Paradise
2. Exile
3. War First
4. Spiritual Insect
5. I Want to Believe
6. Born to Fall
7. Hammer
8. Madness of the Gods
******************************
Total playing time: 47:27




Extended info
Adam Miller Bass, Vocals
See also: Wicked King
Evan Posey Drums
See also: Wicked King
Lance Miller Guitars, Vocals (backing)
See also: ex-Maha Pralaya



Technical info

Input File: 07. Hammer.mp3
Channels : 2
Sample Rate : 44100
Precision : 16-bit
Duration : 00:06:02.00 = 15964200 samples = 27150 CDDA sectors
File Size : 14.7M
Bit Rate : 325k
Sample Encoding: MPEG audio (layer I, II or III)
Comments :
Title=Hammer
Artist=Guillotine A.D.
Album=Born to Fall
Tracknumber=7
Year=2022
Genre=Death/Doom
Discnumber=1



[ Hidden Text ]
Samaritianin
FLAC (Tracks) 503 mb
[ Hidden Text ]
Vitald
Чёткое мясо.
Thrashman
320kb/111MB

[ Hidden Text ]

[ Hidden Text ]
INDARKNESS
[ Hidden Text ]
p.s. flac есть на рутрекере.
This is a "lo-fi" version of our main content. To view the full version with more information, formatting and images, please click here.
Invision Power Board © 2001-2022 Invision Power Services, Inc.