Help - Search - Members - Calendar
Full Version: Axioma - Sepsis (2022)
Metal Area - Extreme Music Portal > Releases Area / Релизы > New Releases
Necrokilldozer


*Artist: Axioma
*Album: Sepsis
*Year: 2022
*Genre: Post-Black Metal
*Country: United States
*Format: mp3@CBR320kbps
*Size: 97MB

Tracklist:
1. Blood Ruminations
2. Contortions of Passage
3. Septic
4. God Extraction
5. The Tower
6. Emptiness of Anguish
7. A New Dark Age
******************************
Total playing time: 40:36



Extended info
Line - up:

Aaron Dallison - Bass, Vocals (Keelhaul, ex-Escalation Anger, Brain Tentacles, Perdition Sect, The Not So Good Ol' Boys, ex-Ringworm, ex-Holy Ghost, ex-Abdullah, ex-State of Conviction, ex-We Live By Night)
Jon Vinson - Drums (Forged in Flame, Jesusegg, ex-Forever Untouched, Keratoma, ex-The Cauterized)
Cyril Blandino - Guitars (Forged in Flame, And Say We Did, ex-Morgue, ex-Superstatic Revolution)
J Meyers - Guitars (Aureae Crucis, ex-Forged in Flame (live))


Technical info

Input File: 02 - Contortions of Passage.mp3
Channels : 2
Sample Rate : 44100
Precision : 16-bit
Duration : 00:06:56.00 = 18345600 samples = 31200 CDDA sectors
File Size : 16.8M
Bit Rate : 322k
Sample Encoding: MPEG audio (layer I, II or III)
Comments :
Title=Contortions of Passage
Artist=Axioma
Album=Sepsis
Tracknumber=2
Year=2022-06-24
Genre=Post-Black Metal



[ Hidden Text ]
Mencae77
Nice! 9.gif
MAPhilosopher
"Post-Black Metal" 15.gif
Вот что бывает, когда копируешь дурацкие теги из Encyclopaedia Metallum.
metaljosue
Un album bastante infravalorado. A mi me parece Blackened Sludge-Metal.

.............

Довольно недооцененный альбом. Мне кажется, что это Blackened Sludge-Metal.

.............

A pretty underrated album. Looks like Blackened Sludge-Metal to me.
Daale
На самом деле тут куча чего, но пост бм? Бл...

Тут тебе и хардкорыча завозят и даже иногда такого легковестного death/black'а, не сильно каноничного, но чую авторы вполне шарят, о чем речь. А вообще, и сладжуха тут определенно есть.

Хотя, смотря на ник топикстартера у меня все встало на места. Хотя, будем честны, многие журналисты недалеко ушли в своем разбирательстве на этот счет тоже
Necrokilldozer
ЦИТАТА(Daale @ Jul 16 2022, 09:47:15) *
На самом деле тут куча чего, но пост бм? Бл...

Тут тебе и хардкорыча завозят и даже иногда такого легковестного death/black'а, не сильно каноничного, но чую авторы вполне шарят, о чем речь. А вообще, и сладжуха тут определенно есть.

Хотя, смотря на ник топикстартера у меня все встало на места. Хотя, будем честны, многие журналисты недалеко ушли в своем разбирательстве на этот счет тоже

Типа последняя инстанция? Типа экс(бывший)перт по стилям? Типа замначальника вселенной по разновидностям металла?
Daale
Necrokilldozer, Не, я просто релизы слушаю, прежде, чем постить. Просто чаще других напоминаю тебе об этом. Как видишь, без меня находятся люди
Neverland
FLAC anyone?
This is a "lo-fi" version of our main content. To view the full version with more information, formatting and images, please click here.
Invision Power Board © 2001-2022 Invision Power Services, Inc.