Help - Search - Members - Calendar
Full Version: Acts Of God - Believe (2022)
Metal Area - Extreme Music Portal > Releases Area / Релизы > New Releases
Necrokilldozer


*Artist: Acts Of God
*Album: Believe
*Year: 2022
*Genre: Metalcore
*Country: Spain
*Format: mp3@CBR320kbps
*Size: 77MB

Tracklist:
1. Life Is Pain 04:31
2. Hate 03:27
3. Beneath Your Grave 04:11
4. Strongest Son 03:47
5. The Cross 04:22
6. Patient Zero 04:10
7. Like a Wolf 04:40
8. Naphthalene 03:50
******************************
Total playing time: 32:58

Extended info
Line - up:

Eric Cabestany - Drums
Abel Marín - Guitars (ex-Spoyler)
Quico Bertran - Guitars
Xevi Poll - Vocals
David Cervantes - Bass




Technical info

Input File: 07 - Like a Wolf.mp3
Channels : 2
Sample Rate : 44100
Precision : 16-bit
Duration : 00:04:33.00 = 12039300 samples = 20475 CDDA sectors
File Size : 10.9M
Bit Rate : 320k
Sample Encoding: MPEG audio (layer I, II or III)
Comments :
Title=Like a Wolf
Artist=Acts of God
Album=Believe
Tracknumber=7
Year=2022-06-24
Genre=Metalcore



[ Hidden Text ]
CTPEMLEHIE
Знаю их. Материал должен быть интересным.
CTPEMLEHIE
Ужасно. Всё испортило желание соответствовать шаблонному металкору.
This is a "lo-fi" version of our main content. To view the full version with more information, formatting and images, please click here.
Invision Power Board © 2001-2022 Invision Power Services, Inc.