Help - Search - Members - Calendar
Full Version: Dawn Of Destiny - Of Silence (2022)
Metal Area - Extreme Music Portal > Releases Area / Релизы > New Releases
Samaritianin


*Artist: Dawn Of Destiny
*Album: Of Silence
*Year: 2022
*Genre: Power Metal
*Country: Germany
*Format: mp3@CBR320kbps
*Size: 147MB

Tracklist:
1. We Are Your Voice
2. Judas in Me
3. Childhood
4. Say My Name
5. White Mystery
6. Not the Way It Is
7. Little Flower
8. Burning Heart
9. Silence
10. Run
11. The Curse
12. Inner Voice
13. This Is Our Legacy
******************************
Total playing time: 1:04:01



Extended info
Jens Faber Guitars (2005-present), Bass, Vocals (2006-present)
See also: Ani Lo. Projekt, Exos, Legions of the Night, Malefistum, ex-Black Horizons, ex-The Fallen One
Dirk Raczkiewicz Keyboards (2005-present)
See also: ex-Merlin's
Veith Offenbächer Guitars (2006-2014, 2021-present)
See also: Destiny, ex-Fairytale, ex-Black Leaf, ex-Dark Ages, ex-Eden, ex-Grizzly Adams, ex-Storms of Autumn, ex-Tequila Sunrise
Jeanette Scherff Vocals (lead) (2010-present)
See also: ex-Temple of Your Soul, ex-Impact
Philipp Bock Drums (2014-present)
See also: Legions of the Night, ex-Skadika, ex-Dark Light



Technical info

Input File: 09 - Silence.mp3
Channels : 2
Sample Rate : 44100
Precision : 16-bit
Duration : 00:04:25.81 = 11722221 samples = 19935.8 CDDA sectors
File Size : 10.7M
Bit Rate : 322k
Sample Encoding: MPEG audio (layer I, II or III)
Comments :
Title=Silence
Artist=Dawn Of Destiny
Album=Of Silence
Tracknumber=9/13
Year=2022



[ Hidden Text ]
Cronopio
Thank you.
Darkangelo
Thanks, Bro !
myst3ryman69
фантастический альбом спасибо гуру метала
zauber1
Нежданчик. Но в моём понимании они так и останутся группой одного альбома. Выстрелили шедевром To Hell, а ни до, ни после ничего подобного у них даже близко не получилось. Редко такое бывает, вообще-то. Где-то в середине творческого пути у коллектива складывается всё воедино, хотя и раньше, и потом делали и делают всё то же самое.
This is a "lo-fi" version of our main content. To view the full version with more information, formatting and images, please click here.
Invision Power Board © 2001-2022 Invision Power Services, Inc.