Help - Search - Members - Calendar
Full Version: Kawir - Γιγαντομαχία (War Of The Giants) [ep] (2022)
Metal Area - Extreme Music Portal > Releases Area / Релизы > New Releases > Low Bitrate
komhs


*Artist: Kawir
*Album: Γιγαντομαχία (War Of The Giants) [ep]
*Year: 2022
*Genre: Black Metal
*Country: Greece
*Format: mp3@CBR320kbps
*Size: 32MB

Tracklist:
1.War of the Giants 04:48
2.Tiresias 04:02
3.Hecatoncheires 05:04
******************************
Total playing time: 13:54

Technical info

Input File: 01.War of the Giants.mp3
Channels : 2
Sample Rate : 44100
Precision : 16-bit
Duration : 00:04:48.14 = 12706886 samples = 21610.4 CDDA sectors
File Size : 11.5M
Bit Rate : 320k
Sample Encoding: MPEG audio (layer I, II or III)
Comments :
Artist=Kawir
Year=0
Genre=12



[ Hidden Text ]
Angeldemon617
Amazing Greek pagan/black metal. Also: holy shit! With Jim Mutilator guest vocals on track 2 and Dis Pater with guest keyboards! Awesome 1488.gif 9.gif
AlexCrazy

azarath111
Мощно , греки порадовали , еще бы HATE MANIFESTO что-нибудь намутили .
Daale
Отличный EP
This is a "lo-fi" version of our main content. To view the full version with more information, formatting and images, please click here.
Invision Power Board © 2001-2022 Invision Power Services, Inc.