Help - Search - Members - Calendar
Full Version: Snake Eyes - No One Left To Die (2022)
Metal Area - Extreme Music Portal > Releases Area / Релизы > New Releases
Samaritianin


*Artist: Snake Eyes
*Album: No One Left To Die
*Year: 2022
*Genre: Thrash Metal
*Country: Poland
*Format: mp3@CBR320kbps
*Size: 121MB

Tracklist:
1. The Masque of the Red Death 05:05
2. No One Left to Die 05:11
3. Roi de Rats 04:00
4. Underdog 03:59
5. Talamasca 05:03
6. All We Need Is Love and Blood 02:54
7. Fear of Gehenna 05:08
8. Plague I 05:48
9. Stabbed in the Back 04:23
10. Sigh of Death 11:20
******************************
Total playing time: 52:51




Extended info
Sewko Guitars (2002-present)
See also: ex-Bottlekopf, ex-Decay (live)
Hipis Bass (2009-present)
See also: ex-SickNest, ex-Incinerate Infection, ex-Locust
Art Guitars (2012-present)
See also: ex-Humanimal
Oskar Drums (2017-present)
See also: Lęk, ex-The No-Mads, ex-Nomads, ex-Tortura
Marth Vocals (2018-present)
See also: Corpus


Technical info

Input File: 07 - Fear Of Gehenna.mp3
Channels : 2
Sample Rate : 44100
Precision : 16-bit
Duration : 00:05:05.00 = 13450500 samples = 22875 CDDA sectors
File Size : 12.3M
Bit Rate : 323k
Sample Encoding: MPEG audio (layer I, II or III)
Comments :
Title=Fear Of Gehenna
Artist=snake eyes
Album=No One Left To Die
Tracknumber=7
Year=2022-04-02
Genre=Metal
Discnumber=1



[ Hidden Text ]
Vitald
Годный такой трэшх дэтх митол.
CTPEMLEHIE
Релиз прекрасен 20.gif
This is a "lo-fi" version of our main content. To view the full version with more information, formatting and images, please click here.
Invision Power Board © 2001-2022 Invision Power Services, Inc.