Help - Search - Members - Calendar
Full Version: Massacre - Mythos [ep] (2022)
Metal Area - Extreme Music Portal > Releases Area / Релизы > Archive
necroscum


*Artist: Massacre
*Album: Mythos [ep]
*Year: 2022
*Genre: Death Metal
*Country: United States
*Format: mp3@CBR320kbps
*Size: 36MB

Tracklist:
01. Behind The Serpent's Curse (feat. Anders Odden) 04:42
02. The Dunwich Horror 02:58
03. The Mythos That Lovecraft Built 03:37
04. The Thing On The Doorstep 03:56
******************************
Total playing time: 15:13







Technical info

Input File: 02 - The Dunwich Horror.mp3
Channels : 2
Sample Rate : 44100
Precision : 16-bit
Duration : 00:02:58.00 = 7849800 samples = 13350 CDDA sectors
File Size : 7.40M
Bit Rate : 332k
Sample Encoding: MPEG audio (layer I, II or III)
Comments :
Title=The Dunwich Horror
Artist=Massacre
Album=Mythos
Tracknumber=2
Year=2022-07-01
Genre=Rock
Discnumber=1



[ Hidden Text ]
judaz
Проходняк. Рогга низводит до своего уровня все, к чему прикасается.
todesser
В принципе неплохо. Можно слушать
dm666
Lossless: FLAC (tracks)
[ Hidden Text ]
igore2911
Без откровений
Emm Human
Задорный дэт старой школы. Заходит сходу.
ЦИТАТА(igore2911 @ Jul 2 2022, 17:53:43) *
Без откровений

Ну тут не про откровения, а скорее про следование традициям стиля. И тут в этом крепкий середняк. Если и альбом в таком ключе выпустят вдруг, меня вполне устроит.
Thrashman
Бодрячковый дэт, нормально зашёл.
kombinator
Последний полноформат овно, а это завтра послушаю!
---MAX---
t2017.gif
true_black.gif
This is a "lo-fi" version of our main content. To view the full version with more information, formatting and images, please click here.
Invision Power Board © 2001-2024 Invision Power Services, Inc.