Help - Search - Members - Calendar
Full Version: Protector - Live '89 [live] (2017)
Metal Area - Extreme Music Portal > Releases Area / Релизы > New Releases
slack


*Artist: Protector
*Album: Live '89 [live]
*Year: 2017
*Genre: Thrash/Death Metal
*Country: Germany
*Format: mp3@CBR320kbps
*Size: 89MB

Tracklist:
01. Capitascism 05:11
02. Sliced, Hacked and Grinded 04:24
03. Misanthropy 02:57
04. Golem 04:31
05. Decadence 03:38
06. Agoraphobia 04:38
07. Atrocities 04:09
08. Kain and Abel 04:19
09. Quasimodo 03:23
10. Urm the Mad 03:14
******************************
Total playing time: 40:24

Preview 1

Technical info

Input File: 02 Sliced, Hacked and Grinded.mp3
Channels : 2
Sample Rate : 48000
Precision : 16-bit
Duration : 00:04:24.74 = 12707568 samples ~ 19855.6 CDDA sectors
File Size : 10.6M
Bit Rate : 320k
Sample Encoding: MPEG audio (layer I, II or III)
Comments :
Title=Sliced, Hacked And Grinded
Artist=Protector
Album=2017 Live '89
Tracknumber=02/10
Year=2017
Genre=Thrash Metal



[ Hidden Text ]
Forcerecon1
*Recorded live at Tor 3, Düsseldorf, Germany, November 27th 1989 M. Missy´s last show..!!
This is a "lo-fi" version of our main content. To view the full version with more information, formatting and images, please click here.
Invision Power Board © 2001-2022 Invision Power Services, Inc.