Help - Search - Members - Calendar
Full Version: Phrenesy - Fears Apocalypse (2022)
Metal Area - Extreme Music Portal > Releases Area / Релизы > New Releases
perelivala


*Artist: Phrenesy
*Album: Fears Apocalypse
*Year: 2022
*Genre: Thrash Metal
*Country: Brazil
*Format: mp3@CBR320kbps
*Size: 101MB

Tracklist:
01. Fears Apocalypse 04:44
02. Bring It On 03:27
03. Fuck The Pain 04:11
04. Lost Generation 03:31
05. Mistakes 03:56
06. My Hate Is Gonna Speak For Me 04:34
07. Vultures 04:40
08. The Truth Is All There 04:24
09. The Party Won't Stop 04:15
10. War For Beer 03:37
******************************
Total playing time: 41:19



Technical info

Input File: 03 - Fuck The Pain.mp3
Channels : 2
Sample Rate : 44100
Precision : 16-bit
Duration : 00:04:11.37 = 11085285 samples = 18852.5 CDDA sectors
File Size : 10.7M
Bit Rate : 341k
Sample Encoding: MPEG audio (layer I, II or III)
Comments :
Title=Fuck The Pain
Artist=Phrenesy
Album=Fears Apocalypse
Tracknumber=3/10
Year=2022
Genre=Smak
Discnumber=1/1



[ Hidden Text ]
isvili
Витон
Зачётній музон!!!спасибо,под настроение само то!!!
dimpa
Превью понравилось, бодро.
mittal
Неплохо, но маловато цепляющих моментов, соляки хорошие, вокал под Testament, 6/10.
Витон
По первым песням прослушивания-ощущаешь что лучше трэша и не может быть,всё просто супер сыгранно на ура по всем канонам жанра но.к середине утомлять начинают похожестью и быстрым ритмом надо было и среднетемповые песни написать-а так спасибо за хороший альбом-класс!!!!!!!
This is a "lo-fi" version of our main content. To view the full version with more information, formatting and images, please click here.
Invision Power Board © 2001-2022 Invision Power Services, Inc.