*Artist: Metal Order
*Album: Adventures & Nightmares
*Year: 2022
*Genre: Heavy Metal
*Country: Sweden
*Format: mp3@CBR320kbps
*Size: 80MB

Tracklist:
01. Courage Of A Soldier 03:49
02. Steelbrothers 03:59
03. The Tempters City 03:44
04. Cthulhu-Rising From The Sea 04:04
05. Ninja 05:03
06. Now Or Never 03:53
07. Thunder And Fury 03:53
08. Today, We March 03:51
09. Fields Of Betrayal 01:53
******************************
Total playing time: 34:09

Technical info

Input File: 02 - Steelbrothers.mp3
Channels : 2
Sample Rate : 44100
Precision : 16-bit
Duration : 00:03:59.00 = 10539900 samples = 17925 CDDA sectors
File Size : 9.82M
Bit Rate : 329k
Sample Encoding: MPEG audio (layer I, II or III)
Comments :
Title=Steelbrothers
Artist=Metal Order
Album=Adventures&Nightmares
Tracknumber=2/9
Year=2022
Discnumber=1/1



[ Hidden Text ]