Help - Search - Members - Calendar
Full Version: THC 666 - Colossal Incubation (2022)
Metal Area - Extreme Music Portal > Releases Area / Релизы > Archive
necroscum


*Artist: THC 666
*Album: Colossal Incubation
*Year: 2022
*Genre: Brutal Death Metal
*Country: Colombia
*Format: mp3@CBR320kbps
*Size: 70MB

Tracklist:
01. Intro 01:06
02. Pandemic FlashBack 02:50
03. Zooprogery 03:33
04. Postmortem Insomnia 03:04
05. Hate 04:40
06. Xenogenesis Species 02:04
07. Halloween Party with Chloroform 03:10
08. Colossal Incubation 05:00
09. Red Eye of Bvbvllvm 04:19
******************************
Total playing time: 29:46






Technical info

Input File: 02. Pandemic FlashBack.mp3
Channels : 2
Sample Rate : 44100
Precision : 16-bit
Duration : 00:02:50.00 = 7497000 samples = 12750 CDDA sectors
File Size : 6.99M
Bit Rate : 329k
Sample Encoding: MPEG audio (layer I, II or III)
Comments :
Title=Pandemic FlashBack
Artist=THC 666
Album=Colossal Incubation
Tracknumber=2
Year=2022
Genre=Brutal Death, Technical Death
Discnumber=1



[ Hidden Text ]
oathzine
Flac

[ Hidden Text ]
AHBAnep
This is a "lo-fi" version of our main content. To view the full version with more information, formatting and images, please click here.
Invision Power Board © 2001-2022 Invision Power Services, Inc.