Help - Search - Members - Calendar
Full Version: Orthodoxy - Ater Ignis (2022)
Metal Area - Extreme Music Portal > Releases Area / Релизы > Archive
Samaritianin


*Artist: Orthodoxy
*Album: Ater Ignis
*Year: 2022
*Genre: Occult Death Metal
*Country: Spain
*Format: mp3@CBR320kbps
*Size: 101MB

Tracklist:
1. Enter the Netherworld 04:00
2. Into Primigenian Darkness I Dwell 07:05
3. Victory Beyond Death 06:07
4. Banished From My Glance 06:07
5. Masked Beast 07:24
6. Where Shadows Move Unseen 05:47
7. Ater Ignis (Covenant of Death) 08:05
******************************
Total playing time: 44:35




Extended info
NTN All instruments
See also: Profundis Tenebrarum, Vengeance, ex-Martyrum Omnium, ex-Voice of Hate, ex-Domains, ex-Devotion, ex-Obscure, ex-Acriter
Nosferatvm Bass, Guitars (2015-present)
See also: Devotion, Profundis Tenebrarum, ex-Der Führer des Schattens, ex-Slugfeast, ex-Obscure, ex-Deadhermit
Davy Guitars (2016-present)
Grond GH Drums (2017-present)
See also: ex-Whoredom, ex-Pestkraft, ex-Dis Gob


Technical info

Input File: 05 - Masked Beast.mp3
Channels : 2
Sample Rate : 44100
Precision : 16-bit
Duration : 00:07:22.00 = 19492200 samples = 33150 CDDA sectors
File Size : 17.8M
Bit Rate : 322k
Sample Encoding: MPEG audio (layer I, II or III)
Comments :
Title=Masked Beast
Artist=Orthodoxy
Album=Ater Ignis
Tracknumber=5
Year=2022-09-22
Genre=Metal
Discnumber=1



[ Hidden Text ]
Samaritianin
FLAC (Tracks) 327 mb
[ Hidden Text ]
judaz
Понадеялся, что группа чувака из Domains сбацает что-нибудь годное, а оказалось фуфлом.
На одном оккультизме далеко не уедешь.
isvili
Вполне не плохо
BladeOvDarkness
Solid Death/Doom!
Aectan
Хороший, кстати, дум дэт, атмосферка могильная.
This is a "lo-fi" version of our main content. To view the full version with more information, formatting and images, please click here.
Invision Power Board © 2001-2022 Invision Power Services, Inc.