Help - Search - Members - Calendar
Full Version: Mglyan - П​а​м​я​т​ь С​в​я​щ​е​н​н​ы​х К​о​с​т​р​о​в [ep] (2022)
Metal Area - Extreme Music Portal > Releases Area / Релизы > Archive
Necrokilldozer


*Artist: Mglyan
*Album: П​а​м​я​т​ь С​в​я​щ​е​н​н​ы​х К​о​с​т​р​о​в [ep]
*Year: 2022
*Genre: Pagan/Black Metal
*Country: Russian Federation
*Format: mp3@CBR320kbps
*Size: 72MB

Tracklist:
1. Потомкам Арийских Богов 08:40
2. Память Священных Костров 03:25
3. Дали 05:19
4. Взывая к Предкам 04:38
5. Единый Закон 07:50
******************************
Total playing time: 29:52



Extended info
FLAC RIP

Recorded in 2007.

The forgotten tale of Slawia

In dark autumn nights among the northern Russian thickets standing atop of the titanic dead lake the band called Mglyan' was created by three shadows of the cursed pagan dusk. Since those days a dozen of damnations were spewn into the light of the ghastly stars and carved into the matter of this world as a "Memory of the Sacred Fires" demo recording in 2005.
In 2009 the band transmutates into a one man project named Slawia from now on with Majestic Knight being the only shadow standing behind all the further creations.
In 2012 the full length album entitled "To the Song of the hardtempered Will" was forged in solitude and determination of the intuitively reconstructed ritual. And since then the spirits of Slawia withdraw into the enchanting twilight to seek the new grim inspirations for 10 more long and evil winters.


Technical info

Input File: 02. Память Священных Костров.mp3
Channels : 2
Sample Rate : 44100
Precision : 16-bit
Duration : 00:03:25.73 = 9072605 samples = 15429.6 CDDA sectors
File Size : 8.33M
Bit Rate : 324k
Sample Encoding: MPEG audio (layer I, II or III)
Comments :
Title=Память Священных Костров
Artist=Mglyan
Album=Memory of the Sacred Fires (EP)
Tracknumber=2
Year=2007
Genre=Pagan | Black Metal



[ Hidden Text ]
Vitald
Чувак из Череповца этой пургой может только в Вологде бравировать.
nsk2008
Армянская Mgla?
Kwaad
QUOTE(nsk2008 @ Oct 18 2022, 17:56:20) *
Армянская Mgla?


Mglyat'
Velemysl
This is a "lo-fi" version of our main content. To view the full version with more information, formatting and images, please click here.
Invision Power Board © 2001-2024 Invision Power Services, Inc.