Help - Search - Members - Calendar
Full Version: Toxik - Kinetic Closure (2020)
Metal Area - Extreme Music Portal > Releases Area / Релизы > Archive
slack


*Artist: Toxik
*Album: Kinetic Closure
*Year: 2020
*Genre: Technical Speed/Thrash Metal
*Country: United States
*Format: mp3@CBR320kbps
*Size: 95MB

Tracklist:
01. Kinetic Closure 03:45
02. Spontaneous 04:49
03. Heart Attack 03:40
04. Greed 04:18
05. False Prophets 02:17
06. Think This 04:55
07. Social Overload 03:55
08. Shotgun Logic 05:40
09. World Circus 04:37
10. No Rest for the Wicked 03:38
******************************
Total playing time: 41:34

Preview 1

Extended info
Альбом записан в 2018 году. Сыгран вживую в студии практически без обработки и с первого дубля



Technical info

Input File: 02 Spontaneous.mp3
Channels : 2
Sample Rate : 44100
Precision : 16-bit
Duration : 00:04:49.35 = 12760379 samples = 21701.3 CDDA sectors
File Size : 11.8M
Bit Rate : 326k
Sample Encoding: MPEG audio (layer I, II or III)
Comments :
Title=Spontaneous
Artist=Toxik
Album=2020 Kinetic Closure
Tracknumber=02/10
Year=2020
Genre=Thrash Metal



[ Hidden Text ]
grinderrr
Этот тоже, кажется, полностью отсюда:
Toxik - III Works [compilation] (2018)
Samaritianin
ЦИТАТА(grinderrr @ Nov 4 2022, 19:46:35) *
Этот тоже, кажется, полностью отсюда:
Toxik - III Works [compilation] (2018)

потому как это сборник старых песен,а слак указал как полный bye.gif
grinderrr
ЦИТАТА(Samaritianin @ Nov 4 2022, 22:19:05) *
потому как это сборник старых песен,а слак указал как полный bye.gif


Да я не против, чтобы он указал.
И не против, чтобы ты указал.
Только я тоже указываю, что этот "полный" альбом, выпущенный отдельно в 20-ом уже полностью входил в полный сборник в том же полном виде, выпущенный в 18-ом.
This is a "lo-fi" version of our main content. To view the full version with more information, formatting and images, please click here.
Invision Power Board © 2001-2023 Invision Power Services, Inc.