Help - Search - Members - Calendar
Full Version: Count Vornok & Gate Master - The Codex Astrarium/The Rite Of Passage [split] (2022)
Metal Area - Extreme Music Portal > Releases Area / Релизы > Archive
Necrokilldozer


*Artist: Count Vornok & Gate Master
*Album: The Codex Astrarium/The Rite Of Passage [split]
*Year: 2022
*Genre: Symphonic Black/Doom Metal | Dungeon Synth/Symphonic Black Metal
*Country: United Kingdom | United Kingdom
*Format: mp3@CBR320kbps
*Size: 86MB

Tracklist:
Count Vornok:
1. Constellation Draconis 06:03
2. Constellation Tenebris 06:05
3. Constellation Lunaris 04:59
Gate Master:
4. A Sacred Poem for the Unholy 05:40
5. The Unfathomable Pilgrimage 06:35
6. Wandering (Forever...in Eternity...) 06:25
******************************
Total playing time: 35:47



Technical info

Input File: 04. A Sacred Poem for the Unholy (Gate Master).mp3
Channels : 2
Sample Rate : 44100
Precision : 16-bit
Duration : 00:05:40.68 = 15024164 samples = 25551.3 CDDA sectors
File Size : 13.7M
Bit Rate : 322k
Sample Encoding: MPEG audio (layer I, II or III)
Comments :
Title=A Sacred Poem for the Unholy (Gate Master)
Artist=Gate Master
Album=The Codex Astrarium / The Rite of Passage (Split)
Tracknumber=4
Year=2022
Genre=Dungeon Synth | Symphonic Black Metal



[ Hidden Text ]
crevardo
plz reup thx
This is a "lo-fi" version of our main content. To view the full version with more information, formatting and images, please click here.
Invision Power Board © 2001-2023 Invision Power Services, Inc.