Help - Search - Members - Calendar
Full Version: MMXX - Sacred Cargo (2022)
Metal Area - Extreme Music Portal > Releases Area / Релизы > Archive
necroscum


*Artist: MMXX
*Album: Sacred Cargo
*Year: 2022
*Genre: Melodic Doom/Death Metal
*Country: United States
*Format: mp3@CBR320kbps
*Size: 108MB

Tracklist:
01. This Breath Is Not My Breath 04:53
02. Perdition Mirror 04:52
03. The New Forgotten Ones 06:17
04. Faint Flickering Light 03:42
05. The Tower 04:47
06. Unavailing 05:52
07. Der Nukleus 04:54
08. Sacred Cargo 05:55
09. Espirare 00:47
10. Shadow Haven 05:14
******************************
Total playing time: 47:13


Preview 2



Technical info

Input File: 02. Perdition Mirror.mp3
Channels : 2
Sample Rate : 44100
Precision : 16-bit
Duration : 00:04:52.85 = 12914773 samples = 21963.9 CDDA sectors
File Size : 11.7M
Bit Rate : 321k
Sample Encoding: MPEG audio (layer I, II or III)
Comments :
Title=Perdition Mirror
Artist=MMXX
Album=Sacred Cargo
Tracknumber=02
Year=2022
Genre=Doom Metal, Gothic Rick, Melodic Death
Discnumber=1/1



[ Hidden Text ]
GRAF
Cудя по превью, это совсем не Melodic Doom Death Metal.
6666666
ЦИТАТА(GRAF @ 11th November 2022 - 16:43:31) *
Cудя по превью, это совсем не Melodic Doom Death Metal.

А зачем ты по превью судишь?
rominow
ЦИТАТА(GRAF @ Nov 11 2022, 14:43:31) *
Cудя по превью, это совсем не Melodic Doom Death Metal.

какие варианты?
kryuger
На вокале Dan Swanö, что тут еще говорить.
Shadechaser
ЦИТАТА(kryuger @ Nov 12 2022, 08:44:39) *
На вокале Dan Swanö, что тут еще говорить.

лишь в одном треке
Ellaya
ЦИТАТА(6666666 @ Nov 11 2022, 14:49:14) *
А зачем ты по превью судишь?

по тебе судить что-ли?
превью оно ведь для...не тебя...
По теме-шняга,один раз можно послушать,не более, много раз сыгранная...
а свано сейчас вообще не показатель.
BuckSatanII
Daylight Dies side project? Fuckin' yes please pray.gif
chefo
Full Album:
Сварог Барг
Нет тут дэта и дума мало, модное современное нечто, не стоящее потраченного времени.
Faust_Vulkan_16
ССылки обновите, плз. 25.gif
BleedingSun
ЦИТАТА(Faust_Vulkan_16 @ Jan 23 2023, 10:30:16) *
ССылки обновите, плз. 25.gif

Тоже по рекомендации as71 зашёл?)
Вчера сам качал с торрента, держи 9.gif
[ Hidden Text ]
Faust_Vulkan_16
Там сравнили это альбом с крайней Кататонией...странное сравнение.
Даже близко ничего нет.
Обычный мелодум со своими фишечками, не больше.
as71
ЦИТАТА(Faust_Vulkan_16 @ 23rd January 2023 - 13:25:31) *
Там сравнили это альбом с крайней Кататонией...странное сравнение.
Даже близко ничего нет.

Не писал, что они похожи, тем более с поздней Кататонией; имелось в виду, что сабж есть смысл послушать тем, кому нравится атмосфера, создаваемая К. Ведь есть же у этой группы настроение, нотки депрессии, роднящие её с К. и такими, например, группами, как October Tide, Novembre, Daylight Dies, разве нет?
Faust_Vulkan_16
QUOTE(as71 @ Jan 23 2023, 16:42:46) *
разве нет?
с этим согласен, да.

as71
Обратил еще внимание, что обложка не слишком характерна для групп подобного стиля, зато практически идеально подошла бы к какому-нибудь из релизов дарк-эмбиентого лейбла Cryo Chamber.
6666666
ЦИТАТА(as71 @ 23rd January 2023 - 14:42:46) *
October Tide, Novembre

Что-то мне расхотелось сабж качать.
as71
ЦИТАТА(6666666 @ 23rd January 2023 - 15:34:38) *
Что-то мне расхотелось сабж качать.

Это, конечно, прискорбно. Но не имеем права настаивать, не качай.
Alexis The Best
ЦИТАТА(kryuger @ 12th November 2022 - 07:44:39) *
На вокале Dan Swanö, что тут еще говорить.
ЦИТАТА(Shadechaser @ 12th November 2022 - 11:58:56) *
лишь в одном треке

а в другом - Аарон из МДБ
This is a "lo-fi" version of our main content. To view the full version with more information, formatting and images, please click here.
Invision Power Board © 2001-2023 Invision Power Services, Inc.