Help - Search - Members - Calendar
Full Version: Framing Skeletons - Luminescence (2021)
Metal Area - Extreme Music Portal > Releases Area / Релизы > Archive
Yarri


*Artist: Framing Skeletons
*Album: Luminescence
*Year: 2021
*Genre: Progressive Metal
*Country: United States
*Format: mp3@CBR320kbps
*Size: 91MB

Tracklist:
01. Change The Channel 03:12
02. I. The Pariah 03:36
03. II. The Progression 08:21
04. Flight In The Failing Knot 04:17
05. Your Vessel 05:57
06. III. The Passing 07:57
07. IV. Rising Dragon 06:02
******************************
Total playing time: 39:22







Extended info
Jeremy Burke - Vocals, Guitars
Ethan Berry - Bass, Backing Vocals
Bryan Holub - Drums, Backing Vocals


Technical info

Input File: 01. Change the Channel.mp3
Channels : 2
Sample Rate : 44100
Precision : 16-bit
Duration : 00:03:12.64 = 8495424 samples = 14448 CDDA sectors
File Size : 7.71M
Bit Rate : 320k
Sample Encoding: MPEG audio (layer I, II or III)
Comments :
Title=Change the Channel
Artist=Framing Skeletons
Album=Luminescence
Tracknumber=1
Year=2021
Genre=Progressive Metal



[ Hidden Text ]
KLOP
Качественный неклассический прог рок\метал с очень депрессивным настроением. К сожалению. Из ассоциаций: VOLA, Chevelle, Opeth, Katatonia.
aesteticvice
К сожалению бодрых тяжелых моментов на альбоме минимум, будь энергетика как в 5 трэке былаб бомба, в 7 развитие интересное, но для меня в целом слащаво слишком, есть любопытные места, есть что послушать в общем, особенно связка трех последних трэков
This is a "lo-fi" version of our main content. To view the full version with more information, formatting and images, please click here.
Invision Power Board © 2001-2024 Invision Power Services, Inc.