Help - Search - Members - Calendar
Full Version: Sullen - Nodus Tollens - Act 1: Oblivion [ep] (2021)
Metal Area - Extreme Music Portal > Releases Area / Релизы > Archive
Yarri


*Artist: Sullen
*Album: Nodus Tollens - Act 1: Oblivion [ep]
*Year: 2021
*Genre: Progressive Metal
*Country: Portugal
*Format: mp3@CBR320kbps
*Size: 77MB

Tracklist:
01. The Prodigal Son 04:28
02. Skylines 04:23
03. Soul Interrupted 01:46
04. Acheronta Movebo 05:33
05. Memento 04:24
06. Human 03:08
07. The After 02:31
08. Fail-Safe 06:53
******************************
Total playing time: 33:06




Extended info
David Pais - Vocals
André Ribeiro - Guitar
Pedro Mendes - Guitar
Ricardo Pinto - Bass
Marcelo Aires - Drums & Keys


Technical info

Input File: 01. The Prodigal Son.mp3
Channels : 2
Sample Rate : 44100
Precision : 16-bit
Duration : 00:04:28.95 = 11860607 samples = 20171.1 CDDA sectors
File Size : 10.8M
Bit Rate : 320k
Sample Encoding: MPEG audio (layer I, II or III)
Comments :
Title=The Prodigal Son
Artist=Sullen
Album=Nodus Tollens - Act I: Oblivion
Tracknumber=1
Year=2021
Genre=Progressive Metal



[ Hidden Text ]
KLOP
Музыка хорошая, вокальные партии и сопровождающая их гитара - полный отстой. И опять челкастое нытье на одной ноте, совсем не совпадающее с основным мотивом. Из-за этого весь альбом превращается в одну сплошную вокальную тягомотину. Причем незапоминающуюся. Грубый вокал есть, музло достойное есть, но полимеры просраны.
Спасибо что не на португальском.
This is a "lo-fi" version of our main content. To view the full version with more information, formatting and images, please click here.
Invision Power Board © 2001-2024 Invision Power Services, Inc.