*Artist: Lykotonon
*Album: Promethean Pathology
*Year: 2022
*Genre: Avant-Garde Black/Death Metal
*Country: United States
*Format: mp3@CBR320kbps
*Size: 89MB

Tracklist:
1. The Apocryphal Self 06:50
2. Wrested from Solace 05:50
3. Apeiron 02:13
4. Psychosocratic 05:25
5. The Primal Principle 05:08
6. That Which Stares in Kind 06:33
7. Seeing Silver in Shadow 07:16
******************************
Total playing time: 39:15




Technical info

Input File: 02. Wrested From Solace.mp3
Channels : 2
Sample Rate : 44100
Precision : 16-bit
Duration : 00:05:53.03 = 15568447 samples = 26477 CDDA sectors
File Size : 14.1M
Bit Rate : 320k
Sample Encoding: MPEG audio (layer I, II or III)
Comments :
Title=Wrested From Solace
Artist=Lykotonon
Album=Promethean Pathology
Tracknumber=2
Year=2022
Genre=Industrial Black Metal



[ Hidden Text ]