Help - Search - Members - Calendar
Full Version: Storm - True Metal (2023)
Metal Area - Extreme Music Portal > Releases Area / Релизы > Archive
Samaritianin


*Artist: Storm
*Album: True Metal
*Year: 2023
*Genre: Black/Death Metal
*Country: Spain
*Format: mp3@CBR320kbps
*Size: 64MB

Tracklist:
1. Intro
2. Meiga
3. The Beginning of the End
4. Pedraforca
5. Through My Eyes
6. Fall and Rise
7. Hate Spell
8. Interludio
9. Deathdealer
10. Paralysis
******************************
Total playing time: 28:02




Technical info

Input File: 07 - Hate Spell.mp3
Channels : 2
Sample Rate : 44100
Precision : 16-bit
Duration : 00:03:39.44 = 9677436 samples = 16458.2 CDDA sectors
File Size : 8.78M
Bit Rate : 320k
Sample Encoding: MPEG audio (layer I, II or III)
Comments :
Title=Hate Spell
Artist=Storm
Album=True Metal
Tracknumber=7
Year=2023



[ Hidden Text ]
vosmidesijatye
Лого у Ксастура стибрили.
nsk2008
ЦИТАТА(vosmidesijatye @ Jan 18 2023, 00:22:48) *
Лого у Ксастура стибрили.


А название у Storm.
vosmidesijatye
И не говори, фантазии от аще нуль.
maxmagmas
ЦИТАТА(vosmidesijatye @ Jan 18 2023, 02:22:48) *
Лого у Ксастура стибрили.

ЦИТАТА(nsk2008 @ Jan 18 2023, 02:31:00) *
А название у Storm.

True Metal же
isvili



This is a "lo-fi" version of our main content. To view the full version with more information, formatting and images, please click here.
Invision Power Board © 2001-2024 Invision Power Services, Inc.