Help - Search - Members - Calendar
Full Version: Holy Moses - Invisible Queen [single] (2023)
Metal Area - Extreme Music Portal > Releases Area / Релизы > Archive
Andrew


*Artist: Holy Moses
*Album: Invisible Queen [single]
*Year: 2023
*Genre: Speed/Thrash Metal
*Country: Germany
*Format: mp3@CBR320kbps
*Size: 9MB

Tracklist:
1. Invisible Queen 03:55
******************************
Total playing time: 3:55




Extended info
Sabina Classen Vocals (1981-1994, 2000-present)
See also: ex-Temple of the Absurd, ex-X-Mas Project
Thomas Neitsch Bass (2008-present)
See also: Desilence, Klonque, ex-Courageous, Veritas Maximus
Gerd Lücking Drums (2011-present)
See also: Bonded (live), Klonque (live), Giftdwarf, ex-Trampire, ex-Lightmare, Veritas Maximus, ex-Rebellion, ex-Melancholic Seasons (live), ex-Tankard (live), ex-Courageous, ex-Rawboned
Peter Geltat Guitars (2012-present)
See also: Desilence, Klonque, ex-Sinners Bleed


Technical info

Input File: Holy_Moses-Invisible_Queen.mp3
Channels : 2
Sample Rate : 44100
Precision : 16-bit
Duration : 00:03:55.61 = 10390577 samples = 17671 CDDA sectors
File Size : 9.55M
Bit Rate : 324k
Sample Encoding: MPEG audio (layer I, II or III)
Comments :
Title=Invisible Queen
Artist=Holy Moses
Album=Invisible Queen (Single)
Year=2023
Genre=144



[ Hidden Text ]
FullofHate
Выключил после 15 секунды.
Samaritianin
ЦИТАТА(FullofHate @ Feb 11 2023, 21:15:31) *
Выключил после 15 секунды.

Та да.зря они вот это все замутили..в утиль бабушку.
Uncle_Vania
даладно... Некромантия ж запрещена Роскомнадзором crazy.gif
RUSP73
Видимо, баблишки у бабули закончились 25.gif
Вспомнилось - "Молодая была немолода" 1488.gif
spbfucker
Жалкая пародия на неповторимый оригинал
vasilisk
ЦИТАТА(Samaritianin @ Feb 11 2023, 21:20:33) *
Та да.зря они вот это все замутили..в утиль бабушку.

Так Сабина говорила , что это их последний альбом
Samaritianin
ЦИТАТА(vasilisk @ Feb 12 2023, 00:49:42) *
Так Сабина говорила , что это их последний альбом

это понятно.только кому он нужен такой?
потому и зря..
Farfarello
Ужас. Вокал у бабки просто дичь стал. Слушать это невозможно. Да и инструментальная часть максимально убога в этой песни. 22.gif
JPV
Очень понравилось. Сабина добавила хардкора, отчего саунд стал такой около-ню-метальный. Ну и молодец, не всё же с внуками и котами на даче окапываться.
Tarelka
К музыкальному полотну претензий нет, очень даже. Но вокал Сабины и этот ущербный припев 22.gif
cancer1974
песня отвратительна
mardak666
Сабинка там еще жжотЪ?
Winner
Вообще не понял этот трэк
vasilisk
ЦИТАТА(mardak666 @ Feb 12 2023, 14:09:16) *
Сабинка там еще жжотЪ?

Клип посмотри 1488.gif
valegga
согласен с предыдущими, редкостная дрянь. что музыка - кто в лес, кто по дрова, что вокал просто никудышный. вычёркиваю 22.gif
Nattfodd
когда ты на массе, а к тебе докопалась гопота:

ЦИТАТА(FullofHate @ Feb 11 2023, 22:15:31) *
Выключил после 15 секунды.


1488.gif
Nattfodd
Хороший сингл, не вижу поводов воротить носы. Вокал хорошо ложится на музыку, сама музыка очень даже достойно звучит.
assonik
от трэша ничего не осталось
This is a "lo-fi" version of our main content. To view the full version with more information, formatting and images, please click here.
Invision Power Board © 2001-2024 Invision Power Services, Inc.