Help - Search - Members - Calendar
Full Version: Perky Macabre - Visualize Nonexistence [ep] (2021)
Metal Area - Extreme Music Portal > Releases Area / Релизы > Archive
necroscum


*Artist: Perky Macabre
*Album: Visualize Nonexistence [ep]
*Year: 2021
*Genre: Grindcore
*Country: United States
*Format: mp3@CBR320kbps
*Size: 9MB

Tracklist:
1. Skin Flavored Jellies 00:17
2. Stabbed With Frozen Piss 00:17
3. Huffing The Dead Ass 00:29
4. Ripe For Pilfering 00:14
5. Staring At People Whilst Naked 00:14
6. Mellified Child 00:14
7. Tubes Of Sentience 00:27
8. Personality Disorder 00:20
9. Scared Of My Own Mind 00:10
******************************
Total playing time: 2:42



Technical info

Input File: Perky Macabre - Visualize Nonexistence - 02 Stabbed With Frozen Piss.mp3
Channels : 2
Sample Rate : 44100
Precision : 16-bit
Duration : 00:00:17.24 = 760328 samples = 1293.07 CDDA sectors
File Size : 866k
Bit Rate : 402k
Sample Encoding: MPEG audio (layer I, II or III)
Comments :
Title=Stabbed With Frozen Piss
Artist=Perky Macabre
Album=Visualize Nonexistence
Tracknumber=2
Year=2021



[ Hidden Text ]
trueandevil
Это уже на спам какой-то похоже...
Shadechaser
ЦИТАТА(trueandevil @ Feb 20 2023, 20:45:08) *
Это уже на спам какой-то похоже...

necroscum тупо накручивает счётчик...
RUSP73
ЦИТАТА(Shadechaser @ Feb 21 2023, 08:31:41) *
necroscum тупо накручивает счётчик...

До 40000 хочет добить 1488.gif
necroscum
QUOTE(RUSP73 @ Feb 21 2023, 19:50:55) *
До 40000 хочет добить 1488.gif


Эх, хотя бы до 39 000. hmm.gif
RUSP73
ЦИТАТА(necroscum @ Feb 21 2023, 19:07:45) *
Эх, хотя бы до 39 000. hmm.gif

А смысл? Орден-то не дадут же 25.gif
necroscum
QUOTE(RUSP73 @ Feb 21 2023, 20:09:44) *
А смысл? Орден-то не дадут же 25.gif


Ордена, конечно, не дадут, но вдруг я опять пропаду на неясно какое-то время. А тут залил этот невероятный ,,шедевр", и на душе будет спокойнее... smile1.gif
RUSP73
ЦИТАТА(necroscum @ Feb 21 2023, 19:13:30) *
Ордена, конечно, не дадут, но вдруг я опять пропаду на неясно какое-то время. А тут залил этот невероятный ,,шедевр", и на душе будет спокойнее... smile1.gif

Так он на этом не остановится - работать и работать, не покладая рук 1488.gif
necroscum
QUOTE(RUSP73 @ Feb 21 2023, 20:38:04) *
Так он на этом не остановится - работать и работать, не покладая рук 1488.gif


Плодовитый парень. Стахановец. Вот ему то можно медаль... 15.gif
This is a "lo-fi" version of our main content. To view the full version with more information, formatting and images, please click here.
Invision Power Board © 2001-2024 Invision Power Services, Inc.