Help - Search - Members - Calendar
Full Version: Frostshock - Frostshock (2023)
Metal Area - Extreme Music Portal > Releases Area / Релизы > Archive
Samaritianin


*Artist: Frostshock
*Album: Frostshock
*Year: 2023
*Genre: Thrash Metal
*Country: Germany
*Format: mp3@CBR320kbps
*Size: 114MB

Tracklist:
01. Ein Sturm Zieht Auf
02. The Serpent Inside
03. Morbus Influencer
04. Demolition Of Dignity
05. Bludgeoned
06. Begraben Im Eis
07. A Weapon Called Time
08. Frostshock
09. Worn Out
10. Angrist
11. Putrefaction Of The Soul
******************************
Total playing time: 49:41



Extended info


Technical info

Input File: 07 - A Weapon Called Time.mp3
Channels : 2
Sample Rate : 44100
Precision : 16-bit
Duration : 00:05:09.10 = 13631354 samples = 23182.6 CDDA sectors
File Size : 12.5M
Bit Rate : 323k
Sample Encoding: MPEG audio (layer I, II or III)
Comments :
Title=A Weapon Called Time
Artist=Frostshock
Album=Frostshock
Tracknumber=7/11
Year=2023



[ Hidden Text ]
Genuine Thrashiac
Хмм, а этого Frost♂COCK♂ ещё нету на metal-archives
Andrew

Очень даже неплохо! metaler.gif

Morda_Morda
Какой же это трэш?

Мелодэт, он и есть мелодэт... адовый ор и тремоло бесконечные...
Andrew

Очень добротный альбус. А стилистика действительно мелодет. 20.gif
скептик
понравился альбом, энергичный, быстрый, в меру агрессивный. Без претензий на шедевр, но слушать приятно.
This is a "lo-fi" version of our main content. To view the full version with more information, formatting and images, please click here.
Invision Power Board © 2001-2024 Invision Power Services, Inc.