Help - Search - Members - Calendar
Full Version: The Convalescence - Harvesters Of Flesh And Bone (2023)
Metal Area - Extreme Music Portal > Releases Area / Релизы > Archive
Necrokilldozer


*Artist: The Convalescence
*Album: Harvesters Of Flesh And Bone
*Year: 2023
*Genre: Symphonic Metalcore/Deathcore
*Country: United States
*Format: mp3@CBR320kbps
*Size: 88MB

Tracklist:
1. Harvesters of Flesh and Bone 03:51
2. Reaper 03:28
3. Bloodletter 03:24
4. No Survivors 02:55
5. Sacrificial Offering 02:58
6. 79 Years 03:36
7. The Worst of All Creations 02:48
8. Undead Swarm 03:20
9. Ignite the Flames 03:15
10. Fire & Blood 03:34
11. Experiment Complete 03:41
******************************
Total playing time: 36:50

Extended info
Line - up:

Ronald Buckley - Bass
Keith Wampler - Vocals (ex-Blood of the Prophets)
Toby Wright - Guitars, Vocals (ex-As Empires Decay)




Technical info

Input File: 07 - The Worst Of All Creations.mp3
Channels : 2
Sample Rate : 44100
Precision : 16-bit
Duration : 00:02:48.19 = 7417091 samples = 12614.1 CDDA sectors
File Size : 6.73M
Bit Rate : 320k
Sample Encoding: MPEG audio (layer I, II or III)
Comments :
Title=The Worst Of All Creations
Artist=The Convalescence
Album=Harvesters Of Flesh And Bone
Tracknumber=7
Year=2023
Genre=Symphonic Metalcore | Deathcore



[ Hidden Text ]
Victim of fate
спасибо за мульт!!!!!
kimkayoung
1. 320 kbps from the web:
[ Hidden Text ]

2. Each track previewable or downloadable at 320 kbps for free (if you want to preview or miss some tracks):
[ Hidden Text ]

[All credits go to the band and the posters].
This is a "lo-fi" version of our main content. To view the full version with more information, formatting and images, please click here.
Invision Power Board © 2001-2024 Invision Power Services, Inc.