Help - Search - Members - Calendar
Full Version: Trup - Nie (2022)
Metal Area - Extreme Music Portal > Releases Area / Релизы > Archive
smysl


*Artist: Trup
*Album: Nie
*Year: 2022
*Genre: Black/Death Metal/Sludge
*Country: Poland
*Format: mp3@CBR320kbps
*Size: 73MB

Tracklist:
1. 29 04:30
2. 30 01:59
3. 31 07:07
4. Nie 05:46
5. 33 12:12
******************************
Total playing time: 31:34





Technical info

Input File: 01 29.mp3
Channels : 2
Sample Rate : 44100
Precision : 16-bit
Duration : 00:04:30.65 = 11935489 samples = 20298.5 CDDA sectors
File Size : 10.9M
Bit Rate : 323k
Sample Encoding: MPEG audio (layer I, II or III)
Comments :
Title=29
Artist=TRUP
Album=NIE
Tracknumber=1
Year=2022
Genre=Black/Death Metal



[ Hidden Text ]
aesteticvice
Хорошо, но мало, еще минут на 30 бы учитывая, что последний 12 минутный трэк по большей части нойзовый эмбиент с небольшими мрачными дум вкраплениями
This is a "lo-fi" version of our main content. To view the full version with more information, formatting and images, please click here.
Invision Power Board © 2001-2024 Invision Power Services, Inc.