Help - Search - Members - Calendar
Full Version: S.U.P. - Octa (2023)
Metal Area - Extreme Music Portal > Releases Area / Релизы > Archive
paganheart


*Artist: S.U.P.
*Album: Octa
*Year: 2023
*Genre: Avant-Garde Metal
*Country: France
*Format: mp3@CBR320kbps
*Size: 107MB

Tracklist:
01. Pseudopodic Phantasm
02. Not Icarus
03. Atramentous Sea
04. The Lights of Eden
05. Queen Quintessence
06. Open Eye
07. Hebdomath
08. Torment
******************************
Total playing time: 48:01

Preview 1

Extended info
Band members
Ludovic Loez Guitars, Vocals
Fabrice Loez Guitars
Frédéric Fievez Bass
Thierry Berger Drums
Miscellaneous staff
Matthieu Carton Artwork
Mixed and mastered at Northern Delights Studio.


Technical info

Input File: 01_S.U.P - Pseudopodic phantasm.mp3
Channels : 2
Sample Rate : 44100
Precision : 16-bit
Duration : 00:06:26.19 = 17031067 samples = 28964.4 CDDA sectors
File Size : 15.5M
Bit Rate : 320k
Sample Encoding: MPEG audio (layer I, II or III)
Comments :
Title=Pseudopodic phantasm
Artist=S.U.P.
Album=Octa
Tracknumber=01
Year=2023



[ Hidden Text ]
spbfucker
А это BM вообще? Помню их месивом разных стилей, далеких от козлотона. Тут по превью всё то же месиво с элементами танцевального Crematory.
paganheart
ЦИТАТА(spbfucker @ May 29 2023, 21:33:00) *
А это BM вообще? Помню их месивом разных стилей, далеких от козлотона. Тут по превью всё то же месиво с элементами танцевального Crematory.

Никогда им и не были, вообще-то. Авант митол, как он есть. Группа, еще с лихих 90х рубит и всегда играла в данном стиле, приправленном толикой мелодета. Я с ними познакомился, услышав на трибьют-альбоме Парадайзов, где они весьма оригинально запилили Гнилую Нищету.
vosmidesijatye
Вот что до супа, то соляночка - самый топ.



Также люблю гороховый, куриный, борщ.

spbfucker
ЦИТАТА(paganheart @ May 29 2023, 19:34:53) *
Никогда им и не были, вообще-то. Авант митол, как он есть.

А, глазоньки меня подвели.
Авангарда я там тоже не помню - помню готиччьный недодэт с электроникой. Ну, для Holy Records классический формат, ни рыба, ни мясо.
Жаль, превьюх мало, очень сомнительный проект.
This is a "lo-fi" version of our main content. To view the full version with more information, formatting and images, please click here.
Invision Power Board © 2001-2024 Invision Power Services, Inc.