Help - Search - Members - Calendar
Full Version: Черноплодь - Лад Да Батог [ep] (2023)
Metal Area - Extreme Music Portal > Releases Area / Релизы > New Releases > Unformat R:
vosmidesijatye


*Artist: Черноплодь
*Album: Лад Да Батог [ep]
*Year: 2023
*Genre: Ambient/Folk
*Country: Russian Federation
*Format: mp3@CBR320kbps
*Size: 51MB

Tracklist:
1. Лад 11:18
2. Батог 11:01
******************************
Total playing time: 22:19

Technical info

Input File: 01. Лад.mp3
Channels : 2
Sample Rate : 44100
Precision : 16-bit
Duration : 00:11:18.07 = 29903063 samples = 50855.5 CDDA sectors
File Size : 27.7M
Bit Rate : 327k
Sample Encoding: MPEG audio (layer I, II or III)
Comments :
Title=Лад
Artist=Черноплодь
Album=Лад да батог
Tracknumber=01
Year=2023



[ Hidden Text ]
vosmidesijatye
Кому мало было, вот ещё навалили атмосферного...
judaz
Чересчур лубочно и фоново.
Falx
Пожалуйста перезалейте.
This is a "lo-fi" version of our main content. To view the full version with more information, formatting and images, please click here.
Invision Power Board © 2001-2024 Invision Power Services, Inc.