Help - Search - Members - Calendar
Full Version: Membrance - Undead Island (2023)
Metal Area - Extreme Music Portal > Releases Area / Релизы > Archive
Samaritianin


*Artist: Membrance
*Album: Undead Island
*Year: 2023
*Genre: Death Metal
*Country: Italy
*Format: mp3@CBR320kbps
*Size: 88MB

Tracklist:
1. Zombie Massacre 03:33
2. Spirar nel caigo 03:44
3. Spetro malcontenta 03:00
4. 1348 03:51
5. Marubio 03:07
6. Armor of Hate 04:02
7. Riva de biasio 03:50
8. Sepolto in velma 03:40
9. Stench of Rot 04:21
10. The Shores Crumble 03:50
******************************
Total playing time: 36:58



Extended info
Davide Lazzarini Vocals (2012-2013, 2014-present), Bass (2014-present)
See also: Catechon, ex-Exilium, ex-Primo Vespere, ex-Revolution Chaos
Giovanni De Fraja Drums (2017-present)
See also: Exitium
Gregorio Di Angilla Guitars (2020-present)
See also: Askesis, Funeral Ground
Giacomo Rusconi Guitars (2021-present)



Technical info

Input File: 09 - Stench of Rot.mp3
Channels : 2
Sample Rate : 44100
Precision : 16-bit
Duration : 00:04:21.00 = 11510100 samples = 19575 CDDA sectors
File Size : 10.8M
Bit Rate : 331k
Sample Encoding: MPEG audio (layer I, II or III)
Comments :
Title=Stench of Rot
Artist=Membrance
Album=Undead Island
Tracknumber=9
Year=2023-06-23
Genre=Металл
Discnumber=1



[ Hidden Text ]
Samaritianin
FLAC (Tracks) 279 mb
[ Hidden Text ]
insufferable
judaz
Уныло, ниасилил.
This is a "lo-fi" version of our main content. To view the full version with more information, formatting and images, please click here.
Invision Power Board © 2001-2024 Invision Power Services, Inc.