Help - Search - Members - Calendar
Full Version: Demonologist & Utarm - Demonologists/Utarm [split] (2020)
Metal Area - Extreme Music Portal > Releases Area / Релизы > New Releases > Unformat R:
ORGANICMASTURBATOR


*Artist: Demonologist & Utarm
*Album: Demonologists/Utarm [split]
*Year: 2020
*Genre: Noise | Experimental Black Metal/Noise
*Country: United States | Norway
*Format: mp3@CBR320kbps
*Size: 128MB

Tracklist:
Demonologists:
1. Pro Ghost / Pro Haunt I 5:18
2. Pro Ghost / Pro Haunt II 5:33
3. Howling Spectre 3:56
4. Halo Seizures 7:08
Utarm:
5. Into The Rotting Silence 32:21
******************************
Total playing time: 54:16

Technical info

Input File: 05 Into the Rotting Silence.mp3
Channels : 2
Sample Rate : 44100
Precision : 16-bit
Duration : 00:32:21.27 = 85610183 samples = 145596 CDDA sectors
File Size : 77.8M
Bit Rate : 320k
Sample Encoding: MPEG audio (layer I, II or III)
Comments :
Title=Into the Rotting Silence
Artist=Utarm
Album=Demonologist / Utarm
Tracknumber=5
Year=2020
Genre=138



[ Hidden Text ]
Wail
Please can you reup
This is a "lo-fi" version of our main content. To view the full version with more information, formatting and images, please click here.
Invision Power Board © 2001-2024 Invision Power Services, Inc.