Help - Search - Members - Calendar
Full Version: Wolfmoon - В​і​р​ш​і П​р​и​н​е​с​е​н​і В​і​т​р​а​м​и (2023)
Metal Area - Extreme Music Portal > Releases Area / Релизы > Archive
Samaritianin


*Artist: Wolfmoon
*Album: В​і​р​ш​і П​р​и​н​е​с​е​н​і В​і​т​р​а​м​и
*Year: 2023
*Genre: Black Metal
*Country: Ukraine
*Format: mp3@CBR320kbps
*Size: 78MB

Tracklist:
1. Падіння 06:28
2. Сон...Сон Що Не Прийшов 04:36 instrumental
3. Думки - отрута моєї душі 05:26
4. Вечірній вид степу широкого 06:38 instrumental
5. М​е​л​а​н​х​о​л​і​я 04:00
6. В​і​р​ш​і п​р​и​н​е​с​е​н​і в​і​т​р​а​м​и 07:03
******************************
Total playing time: 34:11


Preview 2

Extended info
Symargl Guitars, Bass, Vocals (2020-present)


Technical info

Input File: Wolfmoon - Вірші принесені вітрами - 04 Вечірній Вид Степу Широкого.mp3
Channels : 2
Sample Rate : 44100
Precision : 16-bit
Duration : 00:06:38.08 = 17555108 samples = 29855.6 CDDA sectors
File Size : 16.0M
Bit Rate : 321k
Sample Encoding: MPEG audio (layer I, II or III)
Comments :
Title=Вечірній Вид Степу Широкого
Artist=Wolfmoon
Album=Вірші принесені вітрами
Tracknumber=4
Year=2023



[ Hidden Text ]
folker
Та щось якась кустарщина.
This is a "lo-fi" version of our main content. To view the full version with more information, formatting and images, please click here.
Invision Power Board © 2001-2024 Invision Power Services, Inc.